#TITLE:Connect;
#SUBTITLE:SDO China lv25 - [N]hok[Q] Simfile;
#ARTIST:ClariS;
#TITLETRANSLIT:;
#SUBTITLETRANSLIT:;
#ARTISTTRANSLIT:;
#CREDIT:[N]hok[Q] ;
#BANNER:bn.png;
#BACKGROUND:bg.png;
#LYRICSPATH:;
#CDTITLE:cd.png;
#MUSIC:Connect.mp3;
#OFFSET:-0.017;
#SAMPLESTART:66.532;
#SAMPLELENGTH:12.857;
#SELECTABLE:YES;
#DISPLAYBPM:175.000;
#BPMS:0.000=175.002,7.000=174.991,8.000=175.002,14.000=174.991,15.000=175.002,20.000=174.991,21.000=175.002,26.000=174.991,27.000=175.002,33.000=174.991,34.000=116.242,34.500=353.895,35.000=175.002,41.000=174.991,42.000=175.002,49.000=174.991,50.000=175.002,57.000=174.991,58.000=175.002,65.000=174.991,66.000=175.002,67.000=116.242,67.500=353.895,68.000=175.002,73.000=174.991,74.000=175.002,81.000=174.991,82.000=175.002,89.000=174.991,90.000=175.002,97.000=174.991,98.000=175.002,105.000=174.991,106.000=175.002,113.000=174.991,114.000=175.002,121.000=174.991,122.000=175.002,128.000=174.991,129.000=175.002,132.000=174.991,133.000=175.002,136.000=174.991,137.000=175.002,140.000=174.991,141.000=175.002,144.000=174.991,145.000=175.002,148.000=174.991,149.000=175.002,152.000=174.991,153.000=175.002,156.000=174.991,157.000=175.002,160.000=174.991,161.000=175.002,164.000=174.991,165.000=175.002,168.000=174.991,169.000=175.002,172.000=174.991,173.000=175.002,176.000=174.991,177.000=175.002,180.000=174.991,181.000=175.002,184.000=174.991,185.000=175.002,188.000=174.991,189.000=175.002,192.000=174.991,193.000=116.242,193.500=353.895,194.000=175.002,196.000=174.991,197.000=175.002,200.000=174.991,201.000=116.845,201.250=348.500,201.500=174.991,202.000=116.845,202.250=348.500,202.500=174.991,203.000=116.845,203.250=348.500,203.500=174.991,205.000=175.002,208.000=174.991,209.000=175.002,212.000=174.991,213.000=175.002,216.000=174.991,217.000=175.002,220.000=174.991,221.000=175.002,224.000=174.991,225.000=175.002,228.000=174.991,229.000=175.002,232.000=174.991,233.000=175.002,236.000=174.991,237.000=175.002,240.000=174.991,241.000=175.002,244.000=174.991,245.000=175.002,248.000=174.991,249.000=175.002,252.000=174.991,253.000=175.002,320.000=116.845,320.250=348.500,320.500=174.991,321.000=116.845,321.500=348.415,322.000=175.002,329.000=116.845,329.250=348.500,329.500=174.991,330.000=116.845,330.250=348.500,330.500=174.991,331.000=116.845,331.250=348.500,331.500=174.991,332.000=175.002;
#STOPS:;
#BGCHANGES:;
// cache tags:
#FIRSTBEAT:2.000;
#LASTBEAT:395.000;
#SONGFILENAME:songs/SDO Latino/Connect/Connect.sm;
#HASMUSIC:1;
#HASBANNER:1;
#MUSICLENGTH:135.720;
// end cache tags

//---------------dance-single - ----------------
#NOTES:
     dance-single:
     :
     Hard:
     25:
     1.000,1.000,1.000,0.486,0.088,696.000,393.000,66.000,0.000,117.000:
0000
0000
0000
0000
0001
0100
0010
0001
,
2010
0000
0000
0000
0100
0000
0000
0000
0010
0000
0000
3000
0001
0000
0000
0000
0100
0000
0000
0000
0010
0000
0000
0000
1000
0000
0000
0000
0001
0000
0000
0000
,
0110
0010
0001
1000
0100
0010
0100
0002
,
1010
0000
0000
0000
0100
0000
0000
0000
0010
0000
0000
0003
0100
0000
0000
0000
0010
0000
0000
0000
1000
0000
0000
0000
0100
0000
0000
0000
0001
0000
0000
0000
,
0101
0010
1000
0100
1001
0010
0100
0001
,
0210
0000
0000
0000
1000
0000
0000
0000
0010
0000
0000
0300
0001
0000
0000
0000
1000
0000
0000
0000
0010
0000
0000
0000
0001
0000
0000
0000
0100
0000
0000
0000
,
1010
0001
1000
0010
0001
1000
0100
0020
,
0101
0001
1000
0100
0001
0100
0001
2000
,
0000
0000
0000
0000
0000
0000
0000
0000
3030
0000
0000
0000
0001
0010
0100
1000
,
0102
0000
0000
0000
0000
0000
0000
0000
0110
0000
0000
0000
0000
0000
0000
0000
1010
0000
0000
0000
1010
0000
0000
0000
1100
0000
0000
0000
0110
0000
0000
0003
,
0200
0000
0000
0000
0011
0000
0000
0000
1010
0000
0000
0000
0000
0000
0000
0300
0021
0000
0000
0000
1100
0000
0000
0000
1001
0000
0000
0000
0101
0000
0000
0030
,
2001
0000
0000
0000
0000
0000
0000
0000
0110
0000
0000
0000
0000
0000
0000
0000
3012
0000
0000
0000
0110
0000
0000
0000
1010
0000
0000
0003
1200
0000
0000
0000
,
0000
0000
0000
0000
1010
0000
0000
0000
1001
0000
0000
0000
1010
0000
0000
0000
1001
0000
0000
0000
1010
0000
0000
0300
0010
0000
0001
0000
1000
0000
0100
0000
,
1020
0000
0000
0000
0000
0000
0000
0000
0101
0000
0000
0000
0000
0000
0000
0000
1001
0000
0000
0000
1001
0000
0000
0000
0101
0000
0000
0030
2100
0000
0000
0000
,
0000
0000
0000
0000
0011
0000
0000
0000
0101
0000
0000
0000
0110
0000
0000
3000
0102
0000
0000
0000
1010
0000
0000
0000
0110
0000
0000
0000
0000
0000
0000
0003
,
1200
0000
0000
0000
1010
0000
0000
0000
1010
0000
0000
0000
1010
0000
0000
0000
1001
0000
0000
0000
1001
0000
0000
0000
1001
0000
0000
0000
1001
0000
0000
0300
,
0021
0000
0000
0000
0000
0000
0000
0000
0000
0000
0000
0000
0000
0000
0000
0030
2100
0000
0000
0000
0110
0000
0000
0000
0101
0000
0000
0000
0000
0000
0000
3000
,
0011
0001
0110
0100
1100
0011
1100
0011
,
1010
1000
0101
0001
1100
0011
0110
1100
,
0011
0001
0110
0010
1100
1100
0011
0011
,
0110
0100
1001
0010
1100
0011
1100
0011
,
1001
0100
1010
0001
1100
1100
0011
0011
,
0101
0010
0101
0100
1010
1100
0011
0110
,
1001
0100
1001
1000
0011
0011
0110
0110
,
1010
0100
1010
0001
0110
0110
1010
1010
,
0101
0010
0101
0001
1100
0011
1100
0011
,
1010
1000
0110
0100
1001
1010
0101
0011
,
1100
0001
0110
0100
1010
1010
0101
0011
,
1001
0100
1010
0001
0101
0101
0011
1100
,
0101
1000
0011
0001
1100
1100
0110
1010
,
0101
0001
1010
0010
1100
1100
0011
0011
,
0101
0010
1001
0100
1010
0110
0011
1100
,
0101
0010
1010
0100
1100
1100
0011
0011
,
0102
0000
0000
0000
0010
0000
0000
0000
0110
0000
0000
0000
0100
0000
0000
0000
1010
0000
0000
0000
1000
0000
0000
0003
0110
0000
0000
0000
0200
0000
0000
0000
,
1010
0000
0000
0000
0010
0000
0000
0000
1001
0000
0000
0000
1000
0000
0000
0300
0021
0000
0000
0000
0001
0000
0000
0030
2100
0000
0000
0000
0100
0000
0000
3000
,
0102
0000
0000
0000
0010
0000
0000
0000
1100
0000
0000
0003
0200
0000
0000
0000
1010
0000
0000
0000
1000
0000
0000
0300
0021
0000
0000
0000
0001
0000
0000
0000
,
1100
0000
0000
0000
0001
0000
0000
0000
1100
0000
0000
0000
0001
0000
0000
0030
1001
0000
0000
0000
1000
0000
0000
0000
0110
0000
0000
0000
0100
0000
0000
0000
,
2010
0000
0000
0000
0010
0000
0000
0000
0101
0000
0000
3000
0020
0000
0000
0000
0101
0000
0000
0000
0001
0000
0000
0030
1200
0000
0000
0000
1000
0000
0000
0000
,
1010
0000
0000
0300
0002
0000
0000
0000
0110
0000
0000
0000
0010
0000
0000
0003
2010
0000
0000
0000
0100
0000
0000
3000
0101
0000
0000
0000
0020
0000
0000
0000
,
0101
0000
0000
0000
0001
0000
0000
0000
0101
0000
0000
0000
0100
0000
0000
0000
1100
0000
0000
0000
0001
0000
0000
0030
1100
0000
0000
0000
0200
0000
0000
0000
,
1010
0000
0000
0000
1000
0000
0000
0000
0011
0000
0000
0000
0010
0000
0000
0300
1001
0000
0000
0000
0001
0000
0000
0000
0110
0000
0000
0000
1000
0000
0000
0000
,
0102
0000
0000
0000
0010
0000
0000
0000
1100
0000
0000
0000
0010
0000
0000
0000
1010
0000
0000
0000
1000
0000
0000
0003
0110
0000
0000
0000
2000
0000
0000
0000
,
0101
0000
0000
0000
0100
0000
0000
3000
0011
0000
0000
0000
0100
0000
0000
0000
1010
0000
0000
0000
0010
0000
0000
0000
0011
0000
1000
0000
0100
0000
0001
0000
,
1020
0000
0000
0000
0001
0000
0000
0000
1100
0000
0000
0030
0200
0000
0000
0000
1001
0000
0000
0000
0010
0000
0000
0300
1001
0000
0000
0000
0002
0000
0000
0000
,
1010
0000
0000
0000
0100
0000
0000
0003
1010
0000
0000
0000
0001
0000
0000
0000
1100
0000
0000
0000
0010
0000
0000
0000
0101
0000
0000
0000
0100
0000
0000
0000
,
1001
1000
0110
0001
1010
0010
0101
0100
,
1010
0100
1001
0010
1001
0100
1010
0010
,
2001
0000
0000
0000
0100
0000
0000
0000
0011
0000
0000
0000
0100
0000
0010
0000
0101
0000
0000
0000
0001
0000
0000
0000
0110
0000
0000
0000
0100
0000
0000
3000
,
0022
0000
0000
0000
0000
0000
0000
0000
0000
0000
0000
0000
0000
0000
0000
0000
0100
0000
0000
0000
0100
0000
0000
0000
1000
0000
0000
0000
1000
0000
0000
0033
,
1100
0000
0010
0101
1010
0101
1000
0011
,
1100
0000
1100
0001
0100
0000
1010
0000
0000
0000
1001
0000
0000
0000
0011
0000
,
0000
0000
1000
0101
0011
1100
0001
1010
,
0011
0011
0110
1100
0001
1010
0100
1001
,
0010
0000
0100
0100
1010
0001
1100
1000
,
0110
0100
0011
1000
0110
0101
0010
2001
,
0100
0000
0000
0000
0000
0000
0000
0000
0010
0000
0000
0000
0001
0000
0010
3000
0100
0000
0000
0000
0100
0000
0000
0000
1010
0000
0000
0000
0010
0000
0000
0000
,
0102
0000
0000
0000
0000
0000
0000
0000
0000
0000
0000
0000
0000
0000
0000
0003
0210
0000
0000
0000
0000
0000
0000
0000
0000
0000
0000
0000
0000
0000
0000
0300
,
1021
1101
0001
0000
1100
0000
0100
1101
,
1000
0000
0000
0000
1101
0000
0000
0000
0101
0000
0000
0000
0000
0000
0000
0000
1001
0000
0000
0000
0000
0000
0000
0000
1000
0000
0000
0000
0000
0000
0000
0030
,
0101
0111
1000
0000
0011
0000
0100
1110
,
0010
1100
0110
0001
1001
0100
0010
0001
,
1110
1110
1000
0000
0101
0000
0010
1110
,
0100
0111
0111
0000
1001
0000
0100
0000
,
1011
1011
0001
0000
1100
0000
1100
1110
,
0000
0000
0111
0000
1101
0000
1011
0000
1110
0000
0111
0000
1000
0100
0010
0001
,
2100
0000
0000
0000
0000
0000
0000
0000
0010
0000
0000
0000
0100
0000
0000
0000
0001
0000
0000
0000
0100
0000
0000
0000
0010
0000
0000
0000
0100
0000
0000
3000
,
0011
0001
1000
0110
0001
1010
0100
0120
,
1000
0000
0000
0000
0000
0000
0000
0000
0001
0000
0000
0000
0000
0000
0000
0000
1000
0000
0000
0000
1000
0000
0000
0000
0001
0000
0000
0030
0100
0000
0000
0000
,
0101
0101
0011
1100
0100
1010
0110
0011
,
1200
0000
0000
0000
0000
0000
0000
0000
0010
0000
0000
0000
0010
0000
0000
0000
1000
0000
0000
0000
0001
0000
0000
0000
1000
0000
0000
0000
0010
0000
0000
0300
,
1002
0000
0000
0000
1000
0000
0000
0000
0010
0000
0000
0000
0100
0000
0000
0000
0000
0000
0000
0000
0010
0000
0000
0000
1000
0000
0000
0000
0100
0000
0000
0003
,
2010
0000
0001
0000
0100
0000
0010
0000
0001
0000
0010
0000
0100
0000
0001
0000
0100
0000
0010
0000
0001
0000
0010
0000
0100
0000
0010
0000
0001
0000
0100
3000
,
0022
0000
0000
0000
0000
0000
0000
0000
0000
0000
0000
0000
0000
0000
0000
0000
0000
0000
0000
0000
0000
0000
0000
0000
0000
0000
0000
0000
0000
0000
0000
0033
,
1100
0000
0001
0100
0010
0001
0010
0100
,
1001
0010
0001
1000
0010
0100
0001
1000
,
0110
0000
0010
0000
0001
0100
0010
1000
,
0101
0010
1000
0000
0100
0000
0000
0000
0011
0000
0100
0000
0001
0000
0001
0000
,
0110
0000
1010
1000
0101
0001
1010
0100
,
1001
0010
0101
0001
1100
1000
0110
0100
,
1001
0000
0000
0000
0011
1100
0011
0000
0110
0000
0110
0000
1010
0000
1110
0000
,
0000
0111
0111
0000
1100
1100
0110
0110
,
2020
0000
0000
0000
0000
0000
0000
0000
3030
0000
0000
0000
0101
0000
0000
0000
0101
0000
0000
0000
0202
0000
0000
0000
0000
0000
0000
0303
1010
0000
0000
0000
,
1001
1001
0000
0111
0000
1110
0000
1111
,
0000
0000
0100
0011
1100
0110
1000
0101
,
1001
1001
0110
1010
0100
0101
0010
2010
,
0000
0000
0000
0000
0000
0000
0000
3000
0100
0000
0000
0000
0000
0000
0000
0000
0011
0000
0000
0000
1000
0000
0000
0000
0011
0000
0000
0000
0001
0000
0000
0000
,
0110
0000
1100
1100
0001
1010
0100
0101
,
0021
0000
0000
0000
0000
0000
0000
0000
1000
0000
0000
0000
1000
0000
0000
0000
0001
0000
0000
0000
0001
0000
0000
0030
1100
0000
0000
0000
1000
0000
0000
0000
,
0210
0000
0000
0000
0000
0000
0000
0000
0000
0000
0000
0000
0000
0000
0000
0300
1002
0000
0000
0000
0000
0000
0000
0000
0000
0000
0000
0000
0000
0000
0000
0003
,
2010
0000
0000
0000
0000
0000
0000
0000
0110
0000
0000
0000
0000
0000
0000
0000
0011
0000
0000
0000
0110
0000
0000
0000
0101
0000
0000
0000
0011
0000
0000
3000
,
0000
0000
0000
0000
0110
0000
0000
0000
1010
0000
0000
0000
0000
0000
0000
0000
1020
0000
0000
0000
1100
0000
0000
0000
1001
0000
0000
0000
0001
0000
0000
0030
,
1200
0000
0000
0000
0000
0000
0000
0000
1010
0000
0000
0000
0000
0000
0000
0300
1002
0000
0000
0000
1010
0000
0000
0000
1100
0000
0000
0000
1100
0000
0010
0003
,
1000
0000
0000
0000
0101
0000
0000
0000
1010
0000
0000
0000
0110
0000
0000
0000
2001
0000
0000
0000
0110
0000
0000
0000
0001
0000
0010
0000
0100
0000
0001
3000
,
0120
0000
1001
0000
1100
0001
1001
0101
,
0000
0000
0000
0000
0101
0000
0000
0000
1001
0000
0000
0000
0100
0000
0000
0000
1100
0000
0000
0000
0001
0000
0000
0000
1100
0000
0000
0000
0001
0000
0000
0030
,
0101
0000
1001
0000
0011
1100
0011
1100
,
0110
0110
0101
0101
1010
1010
0110
0101
,
2020
0000
0000
0000
,
0000
0000
0000
3030
,
0000
0000
0000
0000
,
0000
0000
0000
0000
,
0000
0000
0000
0000
,
0000
0000
0000
0000
,
0000
0000
0000
0000
;

//---------------dance-solo - ----------------
#NOTES:
     dance-solo:
     :
     Hard:
     25:
     1.000,1.000,1.000,0.486,0.092,685.000,392.000,66.000,0.000,116.000:
000000
000000
000000
000000
000010
001000
000100
000010
,
020100
000000
000000
000000
001000
000000
000000
000000
000100
000000
000000
030000
000010
000000
000000
000000
001000
000000
000000
000000
000100
000000
000000
000000
100000
000000
000000
000000
000010
000000
000000
000000
,
001100
000100
000001
100000
001000
000100
001000
000020
,
010100
000000
000000
000000
001000
000000
000000
000000
000100
000000
000000
000030
001000
000000
000000
000000
000100
000000
000000
000000
010000
000000
000000
000000
001000
000000
000000
000000
000010
000000
000000
000000
,
001010
000100
100000
001000
100010
000100
001000
000001
,
002100
000000
000000
000000
100000
000000
000000
000000
000100
000000
000000
003000
000001
000000
000000
000000
100000
000000
000000
000000
000100
000000
000000
000000
000001
000000
000000
000000
001000
000000
000000
000000
,
010100
000001
010000
000100
000010
010000
001000
000200
,
100010
000010
010000
100000
000010
001000
000001
020000
,
000000
000000
000000
000000
000000
000000
000000
000000
030300
000000
000000
000000
000010
000100
001000
010000
,
001020
000000
000000
000000
000000
000000
000000
000000
001100
000000
000000
000000
000000
000000
000000
000000
010100
000000
000000
000000
010100
000000
000000
000000
110000
000000
000000
000000
001100
000000
000000
000030
,
002000
000000
000000
000000
000110
000000
000000
000000
010001
000000
000000
000000
000000
000000
000000
003000
000210
000000
000000
000000
011000
000000
000000
000000
010010
000000
000000
000000
001010
000000
000000
000300
,
200010
000000
000000
000000
000000
000000
000000
000000
001100
000000
000000
000000
000000
000000
000000
000000
300120
000000
000000
000000
010100
000000
000000
000000
010100
000000
000000
000030
012000
000000
000000
000000
,
000000
000000
000000
000000
010100
000000
000000
000000
010010
000000
000000
000000
100100
000000
000000
000000
100010
000000
000000
000000
010100
000000
000000
003000
000100
000000
000010
000000
010000
000000
001000
000000
,
010200
000000
000000
000000
000000
000000
000000
000000
001010
000000
000000
000000
000000
000000
000000
000000
010001
000000
000000
000000
010001
000000
000000
000000
001010
000000
000000
000300
021000
000000
000000
000000
,
000000
000000
000000
000000
000110
000000
000000
000000
001010
000000
000000
000000
001100
000000
000000
030000
001020
000000
000000
000000
010100
000000
000000
000000
001100
000000
000000
000000
000000
000000
000000
000030
,
012000
000000
000000
000000
010100
000000
000000
000000
010100
000000
000000
000000
100100
000000
000000
000000
100010
000000
000000
000000
100001
000000
000000
000000
010010
000000
000000
000000
010010
000000
000000
003000
,
000210
000000
000000
000000
000000
000000
000000
000000
000000
000000
000000
000000
000000
000000
000000
000300
021000
000000
000000
000000
001100
000000
000000
000000
001010
000000
000000
000000
000000
000000
030000
000000
,
000110
000010
001100
001000
011000
000110
101000
000110
,
100100
100000
001010
000001
011000
000101
001100
011000
,
000110
000010
001100
000100
011000
011000
000110
000110
,
001100
001000
100010
000100
101000
000110
101000
000110
,
100010
001000
010100
000010
011000
011000
000110
000110
,
001001
000100
001001
001000
010100
011000
000101
001100
,
010010
001000
010010
010000
000110
000110
001100
001100
,
010100
001000
010100
000010
001100
001100
010100
010100
,
100010
000100
100010
000010
011000
000110
011000
000110
,
100100
100000
001100
001000
100010
010100
001001
000101
,
011000
000010
001100
001000
010100
010100
001010
000110
,
100010
001000
100100
000010
001010
001001
000101
011000
,
001010
010000
000110
000010
101000
101000
001100
100100
,
001010
000010
010100
000100
011000
101000
000101
000110
,
001010
000100
010010
001000
010100
100100
000110
011000
,
001010
000100
010100
001000
101000
011000
000110
000110
,
001020
000000
000000
000000
000001
000000
000000
000000
001001
000000
000000
000000
001000
000000
000000
000000
010100
000000
000000
000000
010000
000000
000000
000030
001100
000000
000000
000000
002000
000000
000000
000000
,
010100
000000
000000
000000
000100
000000
000000
000000
010010
000000
000000
000000
010000
000000
000000
003000
000210
000000
000000
000000
000010
000000
000000
000300
120000
000000
000000
000000
100000
000000
000000
030000
,
001020
000000
000000
000000
000100
000000
000000
000000
011000
000000
000000
000030
200000
000000
000000
000000
000101
000000
000000
000000
000001
000000
000000
300000
000210
000000
000000
000000
000010
000000
000000
000000
,
011000
000000
000000
000010
000000
000000
010001
000000
000000
000010
000000
000300
010010
000000
000000
100000
000000
000000
001100
000000
000000
001000
000000
000000
,
020100
000000
000000
000000
000100
000000
000000
000000
001010
000000
000000
030000
000200
000000
000000
000000
001010
000000
000000
000000
000010
000000
000000
000300
012000
000000
000000
000000
010000
000000
000000
000000
,
010100
000000
000000
003000
000020
000000
000000
000000
001100
000000
000000
000000
000100
000000
000000
000030
020100
000000
000000
000000
001000
000000
000000
000000
001010
000000
000000
030000
000200
000000
000000
000000
,
100010
000000
000000
000000
000001
000000
000000
000000
100001
000000
000000
000000
001000
000000
000000
000000
011000
000000
000000
000000
000010
000000
000000
000000
011000
000000
000000
000300
002000
000000
000000
000000
,
010100
000000
000000
000000
010000
000000
000000
000000
000110
000000
000000
000000
000100
000000
000000
003000
010010
000000
000000
000000
000010
000000
000000
000000
001100
000000
000000
000000
100000
000000
000000
000000
,
010020
000000
000000
000000
000100
000000
000000
000000
101000
000000
000000
000000
000100
000000
000000
000000
010100
000000
000000
000000
010000
000000
000000
000030
001100
000000
000000
000000
020000
000000
000000
000000
,
001010
000000
000000
000000
001000
000000
000000
030000
000011
000000
000000
000000
001000
000000
000000
000000
010001
000000
000000
000000
000100
000000
000000
000000
000110
000000
010000
000000
001000
000000
000010
000000
,
010200
000000
000000
000000
000010
000000
000000
000000
011000
000000
000000
000300
002000
000000
000000
000000
010010
000000
000000
000000
000100
000000
000000
003000
010010
000000
000000
000000
000020
000000
000000
000000
,
010100
000000
000000
000000
010000
000000
000000
000030
011000
000000
000000
000000
000010
000000
000000
000000
101000
000000
000000
000000
000100
000000
000000
000000
001010
000000
000000
000000
001000
000000
000000
000000
,
010010
010000
001001
000010
010100
000100
001010
001000
,
010100
001000
010010
000100
010010
100000
010100
000100
,
020010
000000
000000
000000
100000
000000
000000
000000
000110
000000
100000
000000
000100
000000
000000
000000
100010
000000
000000
000000
000010
000000
000000
000000
001100
000000
000000
000000
001000
000000
000000
030000
,
000220
000000
000000
000000
000000
000000
000000
000330
001000
000000
100000
000000
000001
000000
010000
000000
,
011000
000000
000100
001010
010100
001010
100000
000110
,
101000
000000
101000
000001
001000
000000
010100
000000
000000
000000
010010
000000
000000
000000
000110
000000
,
000000
000000
100000
001010
000101
101000
000001
010100
,
000110
000110
001100
011000
000000
010100
001000
100010
,
000100
000000
001000
000000
101000
000010
010001
010000
,
001100
000000
000110
001000
101000
011000
000100
020010
,
001000
000000
000000
000000
000000
000000
000000
000000
000100
000000
000000
000000
000010
000000
000100
030000
001000
000000
000000
000000
100000
000000
000000
000000
010100
000000
000000
000000
000100
000000
000000
000000
,
001020
000000
000000
000000
000000
000000
000000
000000
000000
000000
000000
000000
000000
000000
000000
000030
002001
000000
000000
000000
000000
000000
000000
000000
000000
000000
000000
000000
000000
000000
000000
003000
,
010210
011010
000010
000000
011000
000000
100000
110010
,
010000
000000
000000
000000
011010
000000
000000
000000
101000
000000
000000
000000
000000
000000
000000
000000
010010
000000
000000
000000
000000
000000
000000
000000
010000
000000
000000
000000
000000
000000
000000
000300
,
001010
001110
010000
000000
100100
000000
001000
011100
,
000100
011000
001100
000000
010010
001000
000100
000010
,
101100
101100
010000
000000
001010
000000
000100
011100
,
001000
101010
101010
000000
010010
000000
001000
000000
,
010110
010110
000010
000000
011000
000000
010001
010101
,
000000
000000
001110
000000
011010
000000
110010
000000
011100
000000
001110
000000
010000
001000
000100
000010
,
001002
000000
000000
000000
000000
000000
000000
000000
000100
000000
000000
000000
001000
000000
000000
000000
010000
000000
000000
000000
001000
000000
000000
000000
000100
000000
000000
000000
001000
000000
000000
000003
,
000110
000000
000100
001010
010000
100100
001000
201000
,
010000
000000
000000
000000
000000
000000
000000
000000
000010
000000
000000
000000
000000
000000
000000
000000
010000
000000
000000
000000
001000
000000
000000
000000
000010
000000
000000
000000
001000
000000
000000
300000
,
001001
001001
000110
011000
001000
010001
001001
000110
,
012000
000000
000000
000000
000000
000000
000000
000000
000100
000000
000000
000000
100000
000000
000000
000000
010000
000000
000000
000000
000010
000000
000000
000000
010000
000000
000000
000000
000100
000000
000000
003000
,
010020
000000
000000
000000
010000
000000
000000
000000
000100
000000
000000
000000
001000
000000
000000
000000
000000
000000
000000
000000
000100
000000
000000
000000
010000
000000
000000
000000
001000
000000
000000
000030
,
020100
000000
000010
000000
001000
000000
000010
000000
000001
000000
000010
000000
001000
000000
000100
000000
001000
000000
000100
000000
000010
000000
000100
000000
001000
000000
000100
000000
100000
000000
001000
030000
,
000220
000000
000000
000000
000000
000000
000000
000000
000000
000000
000000
000000
000000
000000
000000
000000
000000
000000
000000
000000
000000
000000
000000
000000
000000
000000
000000
000000
000000
000000
000000
000330
,
101000
000000
000010
001000
000100
000010
000100
001000
,
010010
000100
000010
100000
000100
001000
000010
010000
,
001001
000000
000100
000000
000010
001000
000100
010000
,
001010
000100
010000
000000
001000
000000
000000
000000
100100
000000
001000
000000
000010
000000
000010
000000
,
010100
010100
001010
010100
,
010010
000110
101000
001001
,
010010
000000
000000
000000
000110
011000
000110
000000
001100
000000
001100
000000
100100
000000
101001
000000
,
000000
101010
101010
000000
010001
010001
001100
001100
,
020200
000000
000000
000000
000000
000000
000000
000000
030300
000000
000000
000000
001010
000000
000000
000000
001010
000000
000000
000000
002020
000000
000000
000000
000000
000000
000000
003030
010100
000000
000000
000000
,
010010
010010
000000
101010
000000
011100
000000
011110
,
000000
000000
000000
000000
000000
000000
000000
000000
001000
000000
000000
000000
000110
000000
000000
001000
100000
000000
000000
000000
001100
000000
000000
000000
010000
000000
000000
000000
001010
000000
000000
000000
,
010001
010010
100100
010100
001000
001010
000100
020100
,
000000
000000
000000
000000
000000
000000
000000
030000
001000
000000
000000
000000
000000
000000
000000
000000
000101
000000
000000
000000
010000
000000
000000
000000
000110
000000
000000
000000
000010
000000
000000
000000
,
001100
000000
101000
011000
000010
010100
001000
001010
,
000210
000000
000000
000000
000000
000000
000000
000000
010000
000000
000000
000000
010000
000000
000000
000000
000001
000000
000000
000000
000010
000000
000000
000300
011000
000000
000000
000000
010000
000000
000000
000000
,
002100
000000
000000
000000
000000
000000
000000
000000
000000
000000
000000
000000
000000
000000
000000
003000
010020
000000
000000
000000
000000
000000
000000
000000
000000
000000
000000
000000
000000
000000
000000
000030
,
020100
000000
000000
000000
000000
000000
000000
000000
001100
000000
000000
000000
000000
000000
000000
000000
100010
000000
000000
000000
001100
000000
000000
000000
001010
000000
000000
000000
000011
000000
000000
030000
,
000000
000000
000000
000000
001100
000000
000000
000000
010100
000000
000000
000000
000000
000000
000000
000000
011200
000000
000000
000000
011000
000000
000000
000000
100010
000000
000000
000000
000010
000000
000000
000300
,
012000
000000
000000
000000
000000
000000
000000
000000
010100
000000
000000
000000
000000
000000
000000
003000
010020
000000
000000
000000
100100
000000
000000
000000
011000
000000
000000
000000
011000
000000
000100
000030
,
001000
000000
000000
000000
000110
000000
000000
000000
010010
000000
000000
000000
000101
000000
000000
000000
020010
000000
000000
000000
001100
000000
000000
000000
000010
000000
000100
000000
001000
000000
000010
030000
,
001200
000000
010010
000000
011000
000010
010010
001010
,
000000
000000
000000
000000
001010
000000
000000
000000
100010
000000
000000
000000
001000
000000
000000
000000
101000
000000
000000
000000
000010
000000
000000
000000
011000
000000
000000
000000
000010
000000
000000
000300
,
001010
000000
010001
000000
000101
101000
000110
011000
,
001100
001100
100010
001010
010100
010100
001001
001010
,
020200
000000
000000
000000
,
000000
000000
000000
030300
,
000000
000000
000000
000000
,
000000
000000
000000
000000
,
000000
000000
000000
000000
,
000000
000000
000000
000000
,
000000
000000
000000
000000
;
